That was yesterday 1

That was yesterday 1

Nombre total de pages vues

My best of music

Bienvenue

'That was yesterday' est un site qui n'a que pour seule ambtion que le partage de musique,films et séries TV que nous aimons et que vous aimez . Devenez membre et participez à la création d'articles de votre choix,commentez et donnez votre avis .



mardi 6 janvier 2015

Guitar Legends - 1992 - Full Concert [HD 720p]



 
 


 
Guitar Legends - 1992 - Full Concert [HD 720p]

    
     
 

http://cozypowell4ever.blogspot.com

Brian

May, Joe Satriani , Steve Vai, Joe Walsh, Nuno Bettencourt, Paul Rogers
October 19.1991 Sevilla,Spain
Source: Japan Sattelite Broadcast

Track List
01 Satch Boogie (Joe Satriani)
02 Surfing With Alien (Joe Satriani)
03 Always With Me Always With You (Joe Satriani)
04 Big Bad Moon (Joe Satriani,Brian May)
05 Liberty (Steve Vai,Brian May)
06 Greasy Kids Stuff (Steve Vai)
07 For The Love Of God (Steve Vai)
08 More Than World (Nuno Bettencourt,Gary Cherone)
09 Driven By You (Brian May,Steve Vai)
10 Guitara Solo (Brian May)
11 Tie Your Mother Down (Brian May,Steve Vai,Joe Satriani)
12 Funk #49 (Joe Walsh)
13 Rocky Mountain Way (Joe Walsh,Brian May,Steve Vai,Joe Satriani)
14 All Right Now (Paul Rogers,Brian May,Steve Vai,Joe Satriani)
15 Now I'm Here (Brian May,Gary Cherone,Steve Vai,Joe Satriani)
16 Hey Joe (Paul Rogers,Brian May,Steve Vai,Joe Satriani,Nuno Bettencourt,Joe Walsh)
Line Up:
Brian May - Guitar,Vocal
Joe Satriani - Guitar,Vocal
Steve Vai - Guitar
Nuno Bettencourt - Guitar
Joe Walsh - Guitar,Vocal
Paul Rogers - Vocal
Gary Cherone - Vocal
Rick Wakeman - Keyboards
Nathan East - Bass
Steve Ferrone - Drums
Neil Murray - Bass
Cozy Powell - Drums
Media Info:
Complete name : /Guitar Legends - 1992 HD 720p.flv
Format : Flash Video
File size : 5.11 GiB
Duration : 1h 29mn
Overall bit rate : 8 135 Kbps
Writing application : Lavf52.111.0
Video
Format : Sorenson Spark
Codec ID : 2
Duration : 1h 29mn
Bit rate : 7 812 Kbps
Width : 1 280 pixels
Height : 720 pixels
Display aspect ratio : 16:9
Frame rate mode : Constant
Frame rate : 25.000 fps
Bit depth : 8 bits
Bits/(Pixel*Frame) : 0.339
Stream size : 4.91 GiB (96%)
Audio
Format : MPEG Audio
Format version : Version 1
Format profile : Layer 3
Mode : Joint stereo
Codec ID : 2
Codec ID/Hint : MP3
Duration : 1h 29mn
Bit rate mode : Constant
Bit rate : 128 Kbps
Channel(s) : 2 channels
Sampling rate : 44.1 KHz
Compression mode : Lossy
Stream size : 82.3 MiB (2%)